Скачать через торрент Турецкий для Начинающих

Уважаемый гость, на данной странице Вам доступен материал по теме: Скачать через торрент Турецкий для Начинающих. Скачивание возможно на компьютер и телефон через торрент, а также сервер загрузок по ссылке ниже. Рекомендуем также другие статьи из категории «Торренты».

Скачать через торрент Турецкий для Начинающих.rar
Закачек 1985
Средняя скорость 7906 Kb/s
Скачать

Скачать через торрент Турецкий для Начинающих

Скачать фильм «Турецкий для начинающих» через торрент бесплатно

1517 kbps avg, 0.29 bit/pixel
Аудио: 48 kHz, AC3 Dolby Digital, 3/2 (L,C,R,l,r) + LFE ch,

822 kbps avg, 0.17 bit/pixel
Аудио: 48 kHz, MPEG Layer 3, 2 ch,

1813 kbps
Звук: Русский / Немецкий: AC3, 448 kb/s (6 ch)
Субтитры: Русский
Видео: Идентификатор : 1 Формат : AVC Формат/Информация : Advanced Video Codec Профиль формата : Baseline@L3.1 Параметр CABAC формата : Нет Параметр ReFrames формата : 1 кадр Параметр GOP формата : M=1, N=12 Идентификатор кодека : V_MPEG4/ISO/AVC Продолжительность : 1 ч. 48 м. Вид битрейта : Переменный Битрейт : 1813 Кбит/сек Максимальный битрейт : 2790 Кбит/сек Ширина : 1024 пикселя Высота : 436 пикселей Соотношение сторон : 2,35:1 Соотношение сторон в оригинале : 2,35:1 Режим частоты кадров : Постоянный Частота кадров : 24,000 кадра/сек Цветовое пространство : YUV Субдискретизация насыщенности : 4:2:0 Битовая глубина : 8 бит Тип развёртки : Прогрессивная Бит/(Пиксели*Кадры) : 0.169 Размер потока : 1,38 Гбайт (66%) Язык : English Default : Да Forced : Нет
Аудио #1: Идентификатор : 2 Формат : AC-3 Формат/Информация : Audio Coding 3 Расширение режима : CM (complete main) Параметр Endianness формата : Big Идентификатор кодека : A_AC3 Продолжительность : 1 ч. 48 м. Вид битрейта : Постоянный Битрейт : 448 Кбит/сек Каналы : 6 каналов Расположение каналов : Front: L C R, Side: L R, LFE Частота : 48,0 КГц Битовая глубина : 16 бит Метод сжатия : С потерями Размер потока : 348 Мбайт (16%) Язык : Russian Default : Да Forced : Нет
Аудио #2: Идентификатор : 4 Формат : AC-3 Формат/Информация : Audio Coding 3 Расширение режима : CM (complete main) Параметр Endianness формата : Big Идентификатор кодека : A_AC3 Продолжительность : 1 ч. 48 м. Вид битрейта : Постоянный Битрейт : 448 Кбит/сек Каналы : 6 каналов Расположение каналов : Front: L C R, Side: L R, LFE Частота : 48,0 КГц Битовая глубина : 16 бит Метод сжатия : С потерями Размер потока : 348 Мбайт (16%) Язык : German Default : Да Forced : Нет

Дата выхода в России (или в Мире): 15.03.2012

Продолжительность: 01:48:40

Лена — не особо довольная своей жизнью 19-летняя девушка, которой приходится спорить не только со своей матерью, нетрадиционным психотерапевтом, но и со своим бойфрендом, который хочет больше, чем она желает ему дать. Лена хочет только, чтобы все оставили ее в покое, но этого, конечно, не происходит. Напротив, ее мать дарит своей унылой дочери путешествие в Таиланд. К сожалению мечтам о солнце, пляже и отвязных вечеринках не суждено сбыться в связи с падением самолета. Дочь и мать выживают. Вместо того, чтобы встретиться в отеле, Лена оказывается на острове вместе с турецким мачо Чемом, его религиозной сестрой Ягмур и заикой Коста. В такой ситуации наступает хаос. В этоже время мать Лены встречает в отеле Метина, отца Чема и Ягмур.


Статьи по теме