Миротворец скачать через торрент

Уважаемый гость, на данной странице Вам доступен материал по теме: Миротворец скачать через торрент. Скачивание возможно на компьютер и телефон через торрент, а также сервер загрузок по ссылке ниже. Рекомендуем также другие статьи из категории «Торренты».

Миротворец скачать через торрент.rar
Закачек 3698
Средняя скорость 2538 Kb/s
Скачать

Миротворец скачать через торрент

Дата выхода в России (или в Мире): 23.09.1997

Дата выхода на DVD: 31.05.2011

Продолжительность: 02:04

Режиссер: Мими Ледер

Сюжет фильма основан на реальных событиях, которые недавно стали известны благодаря раскрытым секретным архивам. Русский поезд, который везет ядерные ракеты с целью их уничтожения, частично поврежден взрывом где-то в отдаленном районе на юге России.
Соответствующие сигналы поступают в ядерный центр американского Белого Дома. Вскоре выясняется, что оружие находится в руках международных террористов…

Название фильма

Название антологии

20 Сен. 2010 16:36

Фильмы похожие на Миротворец

Субтитры: Русские, английские, испанские, французские, португальские

28092 kbps
Аудио: Аудио 1: Английский, DTS-HD Master Audio 5.1 / 48 kHz / 4395 kbps / 24-bit (DTS Core: 5.1 / 48 kHz / 1509 kbps / 24-bit)
Аудио 2: Французский, Dolby Digital Audio 5.1 / 48 kHz / 640 kbps / DN -4dB
Аудио 3: Русский, Dolby Digital Audio 5.1 / 48 kHz / 448 kbps / DN -4dB (DVO R5 — «Премьер»)
Аудио 4: Русский, Dolby Digital Audio 5.1 / 48 kHz / 448 kbps / DN -4dB (MVO — d2Lab)
Перевод: D2Lab, Премьер Видео Фильм

Перевод 1: Профессиональный (двухголосый закадровый) R5 — Премьер
Перевод 2: Профессиональный (многоголосый закадровый) d2Lab

1627 kbps avg, 0.153 bit/pixel
Аудио: Аудио1: 48 kHz, Dolby Digital AC3 5.1, 448 kbps DVO
Аудио2: 48 kHz, Dolby Digital AC3 5.1, 448 kbps Английский

Cубтитры: русский, английский
Оригинальная навигация по главам: есть
Субтитры: SoftSub (srt)

Субтитры:
• Русские (полные)
• Английские (форсированные №1)
• Английские (форсированные №2)
• Английские (для слабослышащих)

Чаптеры: есть
Субтитры: Русские

1219 kbps avg, 0.23 bit/pixe
Аудио: 48 kHz, AC3 Dolby Digital, 3/2 (L,C,R,l,r) + LFE ch,

448.00 kbps avg
Перевод:

703 kbps avg, 0.17 bit/pixel
Аудио: 48 kHz, MPEG Layer 3, 2 ch,

128.00 kbps avg
Перевод:

Субтитры:
• Русские (полные)
• Английские (форсированные №1)
• Английские (форсированные №2)
• Английские (для слабослышащих)

28092 kbps
Аудио: Аудио 1: English, DTS-HD Master Audio 5.1 / 48 kHz / 4395 kbps / 24-bit (DTS Core: 5.1 / 48 kHz / 1509 kbps / 24-bit)
Аудио 2: French, Dolby Digital Audio 5.1 / 48 kHz / 640 kbps / DN -4dB
Аудио 3: Russian, Dolby Digital Audio 5.1 / 48 kHz / 448 kbps / DN -4dB (MVO R5 — «Премьер»)
Аудио 4: Russian, Dolby Digital Audio 5.1 / 48 kHz / 448 kbps / DN -4dB (MVO — d2Lab)

Субтитры: English, Chinese, French, Portuguese, Russian

Субтитры: Russian, English

Субтитры: Russian, English

Субтитры: Russian, English

Аудио дорожки: Профессиональный (двухголосый, закадровый) [С лицензии R1] + Профессиональный (двухголосый, закадровый) [С лицензии R5] + Оригинальная дорожк

2066 kbps avg, 0.39 bit/pixel
Аудио: 48 kHz, AC3 Dolby Digital, 3/2 (L,C,R,l,r) + LFE ch, 448.00 kbps avg
Перевод:

Субтитры: русские, английские (полные, форсированные)

2069 kbps avg, 0.39 bit/pixel
Аудио: 48 kHz, AC3 Dolby Digital, 3/2 (L,C,R,l,r) + LFE ch,

448 kbps
Перевод:

2069 kbps avg, 0.42 bit/pixel
Аудио: 48 kHz, AC3 Dolby Digital, 3/2 (L,C,R,l,r) + LFE ch,

448 kbps
Перевод:

Аудио : MPEG Audio Битрейт аудио: 320 kbps

Миротворец
(The Peacemaker)

Сюжет фильма основан на реальных событиях, которые недавно стали известны благодаря раскрытым секретным архивам. Русский поезд, который везет ядерные ракеты с целью их уничтожения, частично поврежден взрывом где-то в отдаленном районе на юге России. Соответствующие сигналы поступают в ядерный центр американского Белого Дома. Вскоре выясняется, что оружие находится в руках международных террористов…

Скачать фильм «Миротворец» через торрент бесплатно

28092 kbps
Аудио 1: Английский, DTS-HD Master Audio 5.1 / 48 kHz / 4395 kbps / 24-bit (DTS Core: 5.1 / 48 kHz / 1509 kbps / 24-bit)
Аудио 2: Французский, Dolby Digital Audio 5.1 / 48 kHz / 640 kbps / DN -4dB
Аудио 3: Русский, Dolby Digital Audio 5.1 / 48 kHz / 448 kbps / DN -4dB (DVO R5 — «Премьер»)
Аудио 4: Русский, Dolby Digital Audio 5.1 / 48 kHz / 448 kbps / DN -4dB (MVO — d2Lab)

1627 kbps avg, 0.153 bit/pixel
Аудио: 48 kHz, Dolby Digital AC3 5.1, 448 kbps DVO
Аудио: 48 kHz, Dolby Digital AC3 5.1, 448 kbps Английский
Субтитры: SoftSub (srt)
Видео: Идентификатор : 1 Формат : AVC Формат/Информация : Advanced Video Codec Профиль формата : High@L4.1 Параметр CABAC формата : Да Параметр ReFrames формата : 8 кадров Идентификатор кодека : V_MPEG4/ISO/AVC Продолжительность : 2 ч. 3 м. Битрейт : 1627 Кбит/сек Ширина : 1024 пикселя Высота : 434 пикселя Соотношение сторон : 2,35:1 Режим частоты кадров : Постоянный Частота кадров : 23,976 кадра/сек Цветовое пространство : YUV Субдискретизация насыщенности : 4:2:0 Битовая глубина : 8 бит Тип развёртки : Прогрессивная Бит/(Пиксели*Кадры) : 0.153 Размер потока : 1,37 Гбайт (63%) Заголовок : Источник BDRemux Библиотека кодирования : x264 core 138 r2356 a1d3d17 Настройки программы : cabac=1 / ref=8 / deblock=1:-3:-2 / analyse=0x3:0x113 / me=umh / subme=10 / psy=1 / psy_rd=1.00:0.05 / mixed_ref=1 / me_range=32 / chroma_me=1 / trellis=2 / 8x8dct=1 / cqm=0 / deadzone=21,11 / fast_pskip=0 / chroma_qp_offset=-3 / threads=6 / lookahead_threads=1 / sliced_threads=0 / nr=0 / decimate=0 / interlaced=0 / bluray_compat=0 / constrained_intra=0 / bframes=8 / b_pyramid=2 / b_adapt=2 / b_bias=0 / direct=3 / weightb=1 / open_gop=0 / weightp=2 / keyint=240 / keyint_min=24 / scenecut=40 / intra_refresh=0 / rc_lookahead=40 / rc=2pass / mbtree=1 / bitrate=1627 / ratetol=1.0 / qcomp=0.60 / qpmin=0 / qpmax=69 / qpstep=4 / cplxblur=20.0 / qblur=0.5 / ip_ratio=1.40 / aq=1:1.00 Язык : English Default : Да Forced : Нет
Аудио #1: Идентификатор : 2 Формат : AC-3 Формат/Информация : Audio Coding 3 Расширение режима : CM (complete main) Параметр Endianness формата : Big Идентификатор кодека : A_AC3 Продолжительность : 2 ч. 3 м. Вид битрейта : Постоянный Битрейт : 448 Кбит/сек Каналы : 6 каналов Расположение каналов : Front: L C R, Side: L R, LFE Частота : 48,0 КГц Битовая глубина : 16 бит Метод сжатия : С потерями Размер потока : 397 Мбайт (18%) Заголовок : Источник BDRemux Dolby Digital 5,1 448kb DVO Язык : Russian Default : Да Forced : Нет
Аудио #2: Идентификатор : 3 Формат : AC-3 Формат/Информация : Audio Coding 3 Расширение режима : CM (complete main) Параметр Endianness формата : Big Идентификатор кодека : A_AC3 Продолжительность : 2 ч. 3 м. Вид битрейта : Постоянный Битрейт : 448 Кбит/сек Каналы : 6 каналов Расположение каналов : Front: L C R, Side: L R, LFE Частота : 48,0 КГц Битовая глубина : 16 бит Метод сжатия : С потерями Размер потока : 397 Мбайт (18%) Заголовок : Источник BDRemux Dolby Digital 5,1 448kb Язык : English Default : Нет Forced : Нет

1219 kbps avg, 0.23 bit/pixe
Аудио: 48 kHz, AC3 Dolby Digital, 3/2 (L,C,R,l,r) + LFE ch,

703 kbps avg, 0.17 bit/pixel
Аудио: 48 kHz, MPEG Layer 3, 2 ch,


Статьи по теме